Streaming Video to iphone

Support for Tonido on Mobile including iPhone, Blackberry, Android and mobile devices
psycik
Regular Tonidoid
Regular Tonidoid
Posts: 16
Joined: Sun Aug 22, 2010 4:24 pm

Streaming Video to iphone

Postby psycik » Mon Oct 11, 2010 2:11 am

Hi

I have the following video I've converted with Handbrake. Should it work on the iphone 4? And if so why wont it stream with the tonido app?

General
Complete name : S01E01.avi.mp4
Format : MPEG-4
Format profile : Base Media / Version 2
Codec ID : mp42
File size : 150 MiB
Duration : 22mn 4s
Overall bit rate : 951 Kbps
Encoded date : UTC 2010-10-11 01:33:38
Tagged date : UTC 2010-10-11 01:49:45
Writing application : HandBrake 0.9.4 2009112300

Video
ID : 1
Format : AVC
Format/Info : Advanced Video Codec
Format profile : Main@L2.2
Format settings, CABAC : Yes
Format settings, ReFrames : 2 frames
Codec ID : avc1
Codec ID/Info : Advanced Video Coding
Duration : 22mn 4s
Bit rate mode : Variable
Bit rate : 786 Kbps
Width : 608 pixels
Height : 336 pixels
Display aspect ratio : 16:9
Frame rate mode : Variable
Frame rate : 23.976 fps
Minimum frame rate : 23.974 fps
Maximum frame rate : 23.981 fps
Resolution : 8 bits
Colorimetry : 4:2:0
Scan type : Progressive
Bits/(Pixel*Frame) : 0.160
Stream size : 124 MiB (83%)
Writing library : x264 core 79
Encoding settings : cabac=1 / ref=2 / deblock=1:0:0 / analyse=0x1
:0x111 / me=hex / subme=6 / psy=1 / psy_rd=1.0:0.0 / mixed_ref=0 / me_range=16 /
chroma_me=1 / trellis=0 / 8x8dct=0 / cqm=0 / deadzone=21,11 / chroma_qp_offset=
-2 / threads=3 / nr=0 / decimate=1 / mbaff=0 / constrained_intra=0 / bframes=2 /
b_pyramid=0 / b_adapt=1 / b_bias=0 / direct=1 / wpredb=0 / wpredp=2 / keyint=24
0 / keyint_min=24 / scenecut=40 / rc_lookahead=40 / rc=2pass / mbtree=1 / bitrat
e=786 / ratetol=1.0 / qcomp=0.60 / qpmin=10 / qpmax=51 / qpstep=4 / cplxblur=20.
0 / qblur=0.5 / ip_ratio=1.40 / aq=1:1.00
Encoded date : UTC 2010-10-11 01:33:38
Tagged date : UTC 2010-10-11 01:49:45
Color primaries : BT.601-6 525, BT.1358 525, BT.1700 NTSC, SMPT
E 170M
Transfer characteristics : BT.709-5, BT.1361
Matrix coefficients : BT.601-6 525, BT.1358 525, BT.1700 NTSC, SMPT
E 170M

Audio
ID : 2
Format : AAC
Format/Info : Advanced Audio Codec
Format version : Version 4
Format profile : LC
Format settings, SBR : No
Codec ID : 40
Duration : 22mn 4s
Bit rate mode : Variable
Bit rate : 160 Kbps
Maximum bit rate : 232 Kbps
Channel(s) : 2 channels
Channel positions : Front: L R
Sampling rate : 48.0 KHz
Stream size : 25.3 MiB (17%)
Encoded date : UTC 2010-10-11 01:33:38
Tagged date : UTC 2010-10-11 01:49:45

rydgaze
Tonido Team
Tonido Team
Posts: 1354
Joined: Wed Jan 28, 2009 11:26 pm

Re: Streaming Video to iphone

Postby rydgaze » Sun Oct 24, 2010 9:37 pm

Iphone streaming will only work if the video is specifically converted to be played in iphone (and I cannot tell based on that info whether or not it can play. Tonido in iphone uses native iphone movie player and has no real control on whether the streamed content can play or not.

There are plans to transcode video to iphone compatible format but that is atleast a version away (and this will happen after we release the ipad app :) )

psycik
Regular Tonidoid
Regular Tonidoid
Posts: 16
Joined: Sun Aug 22, 2010 4:24 pm

Re: Streaming Video to iphone

Postby psycik » Fri Nov 12, 2010 2:23 am

Unsure how to get videos working, sometimes they do sometimes they don't.

Does anything get posted in a log somewhere if the client has an issue?

I haven't found what criteria is needed to make the videos go - the ones I'm playing with work when on the phone.


Return to “Tonido on Mobile”

Who is online

Users browsing this forum: No registered users and 4 guests